Jump to content

Frank

Editor
  • Posts

    8,564
  • Joined

  • Online

  • Wins

    123

Frank last won the day on June 26

Frank had the most liked content!

About Frank

  • Birthday 10/25/1981

Profile Information

  • Gender
    Man
  • Location
    Spain
  • Interests
    *** Music/Love/Art/Life ***
  • M Fan Since
    1990

Recent Profile Visitors

16,923 profile views

Frank's Achievements

Batuka

Batuka (87/87)

33.3k

Reputation

  1. More pro footage and rehearsals in M's latest Insta stories. Please give us that video mama!!!!!!!!!!!!!!!!!!!!!.
  2. What a GREAT surprise. They clearly LOVE each other, it's obvious. Let's enjoy it!!!!!!!!!!!!!!!!!!.
  3. Can't wait for the video, that teaser looks amazing, she looks stunning, the colours, the scenes... gworl is serving.
  4. I'm really enjoy it, so fresh and fun and so happy we're getting a video, she looks gorgeous!!! Seems they used both performance and maybe dress rehearsals footage??!!.
  5. I think this "shoot" was posted in Saucy's Insta: https://www.instagram.com/p/CfMCvWxL7pb/?igshid=MDJmNzVkMjY=
  6. So just as the performance. We want it as the official video, pleaseeeee!!!.
  7. I've been able to download in my computer a video and an audio file of the show, from the Prime Video desktop app, but they won't play. Format : dash Codec ID : dash (dash/iso6) File size : 10.4 GiB Duration : 2 h 38 min Overall bit rate mode : Constant Overall bit rate : 9 385 kb/s Video ID : 1 Format : AVC Format/Info : Advanced Video Codec Format profile : High@L4 Format settings : CABAC / 4 Ref Frames Format settings, CABAC : Yes Format settings, Reference fra : 4 frames Codec ID : encv / avc1 Codec ID/Info : Advanced Video Coding Duration : 2 h 38 min Bit rate mode : Constant Bit rate : 9 379 kb/s Nominal bit rate : 10 000 kb/s Maximum bit rate : 23.9 Mb/s Width : 1 920 pixels Height : 800 pixels Display aspect ratio : 2.40:1 Frame rate mode : Constant Frame rate : 25.000 FPS Color space : YUV Chroma subsampling : 4:2:0 Bit depth : 8 bits Scan type : Progressive Bits/(Pixel*Frame) : 0.244 Stream size : 10.4 GiB (100%) Encryption : Encrypted Color range : Limited Color primaries : BT.709 Transfer characteristics : BT.709 Matrix coefficients : BT.709 Codec configuration box : avcC ******************************************** Format : dash Codec ID : dash (dash/iso6/iso9) File size : 152 MiB Duration : 2 h 38 min Overall bit rate mode : Variable Overall bit rate : 133 kb/s Audio ID : 1 Format : AAC LC Format/Info : Advanced Audio Codec Low Complexity Codec ID : enca-40-2 Duration : 2 h 38 min Bit rate mode : Variable Bit rate : 128 kb/s Maximum bit rate : 134 kb/s Channel(s) : 2 channels Channel layout : L R Sampling rate : 48.0 kHz Frame rate : 46.875 FPS (1024 SPF) Compression mode : Lossy Stream size : 146 MiB (96%) Language : English Encryption : Encrypted @Roy
×
×
  • Create New...