Jump to content

Frank

Editor
  • Posts

    8,564
  • Joined

  • Online

  • Wins

    123

Everything posted by Frank

  1. More pro footage and rehearsals in M's latest Insta stories. Please give us that video mama!!!!!!!!!!!!!!!!!!!!!.
  2. What a GREAT surprise. They clearly LOVE each other, it's obvious. Let's enjoy it!!!!!!!!!!!!!!!!!!.
  3. Can't wait for the video, that teaser looks amazing, she looks stunning, the colours, the scenes... gworl is serving.
  4. I'm really enjoy it, so fresh and fun and so happy we're getting a video, she looks gorgeous!!! Seems they used both performance and maybe dress rehearsals footage??!!.
  5. I think this "shoot" was posted in Saucy's Insta: https://www.instagram.com/p/CfMCvWxL7pb/?igshid=MDJmNzVkMjY=
  6. So just as the performance. We want it as the official video, pleaseeeee!!!.
  7. I've been able to download in my computer a video and an audio file of the show, from the Prime Video desktop app, but they won't play. Format : dash Codec ID : dash (dash/iso6) File size : 10.4 GiB Duration : 2 h 38 min Overall bit rate mode : Constant Overall bit rate : 9 385 kb/s Video ID : 1 Format : AVC Format/Info : Advanced Video Codec Format profile : High@L4 Format settings : CABAC / 4 Ref Frames Format settings, CABAC : Yes Format settings, Reference fra : 4 frames Codec ID : encv / avc1 Codec ID/Info : Advanced Video Coding Duration : 2 h 38 min Bit rate mode : Constant Bit rate : 9 379 kb/s Nominal bit rate : 10 000 kb/s Maximum bit rate : 23.9 Mb/s Width : 1 920 pixels Height : 800 pixels Display aspect ratio : 2.40:1 Frame rate mode : Constant Frame rate : 25.000 FPS Color space : YUV Chroma subsampling : 4:2:0 Bit depth : 8 bits Scan type : Progressive Bits/(Pixel*Frame) : 0.244 Stream size : 10.4 GiB (100%) Encryption : Encrypted Color range : Limited Color primaries : BT.709 Transfer characteristics : BT.709 Matrix coefficients : BT.709 Codec configuration box : avcC ******************************************** Format : dash Codec ID : dash (dash/iso6/iso9) File size : 152 MiB Duration : 2 h 38 min Overall bit rate mode : Variable Overall bit rate : 133 kb/s Audio ID : 1 Format : AAC LC Format/Info : Advanced Audio Codec Low Complexity Codec ID : enca-40-2 Duration : 2 h 38 min Bit rate mode : Variable Bit rate : 128 kb/s Maximum bit rate : 134 kb/s Channel(s) : 2 channels Channel layout : L R Sampling rate : 48.0 kHz Frame rate : 46.875 FPS (1024 SPF) Compression mode : Lossy Stream size : 146 MiB (96%) Language : English Encryption : Encrypted @Roy
  8. HQ cover: https://www.media.wmg-is.com/media/portal/media/cms/60349/7835/603497835744.jpg
  9. So today at 12 PM it will be up in NZ, right? Does that work that way?
  10. It's a light and funny reinvention of the song, happy she's releasing it. It'd be nice to have the performance as a "video" uploaded to her YouTube channel 🤞🏻🤞🏻🤞🏻🤞🏻🤞🏻
  11. Haven't been able to capture/download the 2K versions tho, just 720 versions... i don't know why but i can't... I got a 2K version of the IDSIF one and it doesn't play properly... T_T
  12. THE BACKDROPS!!!!!!!!!!!!!!!!!!!!!: https://sknx.xxx/MADONNA-FINALLY-ENOUGH-LOVE-PRIDE-2022-CONCERT
  13. What r they waiting for to upload the full interview on the site? I want those damn pics in digital Q!.
  14. https://warnermusicstore.com.br/wp-content/uploads/2022/07/Banner_1440x720_Madona.jpg
  15. https://warnermusicstore.com.br/produto/cd-madonna-1-cd-finally-enough-love-16-faixas/
×
×
  • Create New...