Jump to content

Maluma + Madonna: Medallo en el Mapa Amazon Prime NEW EDIT / ESC Treatment + DOWNLOAD


Recommended Posts

I've been able to download in my computer a video and an audio file of the show, from the Prime Video desktop app, but they won't play.

Format                         : dash
Codec ID                       : dash (dash/iso6)
File size                      : 10.4 GiB
Duration                       : 2 h 38 min
Overall bit rate mode          : Constant
Overall bit rate               : 9 385 kb/s

Video
ID                             : 1
Format                         : AVC
Format/Info                    : Advanced Video Codec
Format profile                 : High@L4
Format settings                : CABAC / 4 Ref Frames
Format settings, CABAC         : Yes
Format settings, Reference fra : 4 frames
Codec ID                       : encv / avc1
Codec ID/Info                  : Advanced Video Coding
Duration                       : 2 h 38 min
Bit rate mode                  : Constant
Bit rate                       : 9 379 kb/s
Nominal bit rate               : 10 000 kb/s
Maximum bit rate               : 23.9 Mb/s
Width                          : 1 920 pixels
Height                         : 800 pixels
Display aspect ratio           : 2.40:1
Frame rate mode                : Constant
Frame rate                     : 25.000 FPS
Color space                    : YUV
Chroma subsampling             : 4:2:0
Bit depth                      : 8 bits
Scan type                      : Progressive
Bits/(Pixel*Frame)             : 0.244
Stream size                    : 10.4 GiB (100%)
Encryption                     : Encrypted
Color range                    : Limited
Color primaries                : BT.709
Transfer characteristics       : BT.709
Matrix coefficients            : BT.709
Codec configuration box        : avcC

********************************************

Format                         : dash
Codec ID                       : dash (dash/iso6/iso9)
File size                      : 152 MiB
Duration                       : 2 h 38 min
Overall bit rate mode          : Variable
Overall bit rate               : 133 kb/s

Audio
ID                             : 1
Format                         : AAC LC
Format/Info                    : Advanced Audio Codec Low Complexity
Codec ID                       : enca-40-2
Duration                       : 2 h 38 min
Bit rate mode                  : Variable
Bit rate                       : 128 kb/s
Maximum bit rate               : 134 kb/s
Channel(s)                     : 2 channels
Channel layout                 : L R
Sampling rate                  : 48.0 kHz
Frame rate                     : 46.875 FPS (1024 SPF)
Compression mode               : Lossy
Stream size                    : 146 MiB (96%)
Language                       : English
Encryption                     : Encrypted

@Roy

Link to comment
Share on other sites

3 minutes ago, Frank said:

I've been able to download in my computer a video and an audio file of the show, from the Prime Video desktop app, but they won't play.

Format                         : dash
Codec ID                       : dash (dash/iso6)
File size                      : 10.4 GiB
Duration                       : 2 h 38 min
Overall bit rate mode          : Constant
Overall bit rate               : 9 385 kb/s

Video
ID                             : 1
Format                         : AVC
Format/Info                    : Advanced Video Codec
Format profile                 : High@L4
Format settings                : CABAC / 4 Ref Frames
Format settings, CABAC         : Yes
Format settings, Reference fra : 4 frames
Codec ID                       : encv / avc1
Codec ID/Info                  : Advanced Video Coding
Duration                       : 2 h 38 min
Bit rate mode                  : Constant
Bit rate                       : 9 379 kb/s
Nominal bit rate               : 10 000 kb/s
Maximum bit rate               : 23.9 Mb/s
Width                          : 1 920 pixels
Height                         : 800 pixels
Display aspect ratio           : 2.40:1
Frame rate mode                : Constant
Frame rate                     : 25.000 FPS
Color space                    : YUV
Chroma subsampling             : 4:2:0
Bit depth                      : 8 bits
Scan type                      : Progressive
Bits/(Pixel*Frame)             : 0.244
Stream size                    : 10.4 GiB (100%)
Encryption                     : Encrypted
Color range                    : Limited
Color primaries                : BT.709
Transfer characteristics       : BT.709
Matrix coefficients            : BT.709
Codec configuration box        : avcC

********************************************

Format                         : dash
Codec ID                       : dash (dash/iso6/iso9)
File size                      : 152 MiB
Duration                       : 2 h 38 min
Overall bit rate mode          : Variable
Overall bit rate               : 133 kb/s

Audio
ID                             : 1
Format                         : AAC LC
Format/Info                    : Advanced Audio Codec Low Complexity
Codec ID                       : enca-40-2
Duration                       : 2 h 38 min
Bit rate mode                  : Variable
Bit rate                       : 128 kb/s
Maximum bit rate               : 134 kb/s
Channel(s)                     : 2 channels
Channel layout                 : L R
Sampling rate                  : 48.0 kHz
Frame rate                     : 46.875 FPS (1024 SPF)
Compression mode               : Lossy
Stream size                    : 146 MiB (96%)
Language                       : English
Encryption                     : Encrypted

@Roy

Hmmm... I was thinking that it would be a 5.1 setup. 😅

Welp, gonna do some digging to see what I can do. Thank you, Frank! 😁

Link to comment
Share on other sites

  • WopaelWopael changed the title to Maluma + Madonna: Medallo en el Mapa Amazon Prime NEW EDIT / ESC Treatment + DOWNLOAD

Join the conversation

You can post now and register later. If you have an account, sign in now to post with your account.

Guest
Write here...

×   Pasted as rich text.   Restore formatting

  Only 75 emoji are allowed.

×   Your link has been automatically embedded.   Display as a link instead

×   Your previous content has been restored.   Clear editor

×   You cannot paste images directly. Upload or insert images from URL.

 Share


×
×
  • Create New...